Оцифрую видеокассеты VHS (большие такие) в Минске — в формат одного DVD с разбивкой на сюжеты-фрагменты с разных видеокассет

Оцифровать видеокассеты в Минске. 3 руб. - 1 час. В формат DVD-диска с главами-сюжетами или одним файлом MPG. Конвертация в др. форматы - 1 руб. за 1 час. Внизу кадра возможна узкая полоса (см. ниже).

Помимо помощи в освоении компьютерной грамотности начинающим (компьютер-ноутбук на Виндоус или смартфон-планшет на Андроиде) с этого месяца оказываю услугу — «оцифровка видеокассет» (только VHS) в домашних условиях. Благодаря возможностям моего пишущего BBK DVD плеера, могу вам предложить следующее по цене 3 рубля за 1 час видео:

  1. Простая, последовательная оцифровка полной видеокассеты (2-3 часа видео) в режиме SP (2 часа видео записываем на один DVD диск размером 4.38 Гб) или HQ (1 час видео записываем на один DVD диск). Если на кассете много разных фрагментов, то можно из них сделать меню и разбить диск на сюжеты-главы-фрагменты. Результат — папка на вашей флешке, содержащая файлы DVD формата VOB;
  2. Можно из фрагментов разных видеокассет – делать один DVD-диск – с разбивкой на сюжеты (см. пример ниже — оцифровка материалов «Круглый стол СМИ как нравственно-образовательный фактор современности. 2002.02.27»). Результат — папка на вашей флешке, содержащая файлы DVD формата VOB;
  3. Можно объединить все 5 стандартных файла VOB 1 полного DVD-диска в один с расширением «___.mpg», размером около 4  Гб;
  4. За дополнительную плату сделаю конвертацию из исходного файла формата VOB или  mpg в иной формат, например mp4, в режиме «оптимальное качество и размер». Например, исходный размер 4.3 Гб, а станет — 0.9 Гб. Предварительная цена — 1 руб. за 1 час конвертации с предоставлением скриншота, подтверждающего время конвертации каждого файла.

К сожалению, но у меня нет технической возможности, поэтому на оцифрованном видео внизу может быть вот такая полоска, образующаяся во время оцифровки моим BBK.

Рекомендую результат оцифровки вашей видеокассеты забирать на флешках, жестких дисках, но не на DVD-дисках. Заранее согласуйте со мной их потенциальный объем.

Вы сами доставляете видеокассеты ко мне (район Комаровского рынка или на выходе из метро «Якуба Коласа»). Выезд к Вам на дом – 5 руб.

Краснов Юрий Эдуардович

Тел. моб. +375 29 112 67 05 (есть Viber, WhatsApp, Skype)

E-mail: krasnov-yuri@yandex.ru

 

Оцифрую видеокассеты VHS (большие такие) в Минске - в формат одного DVD с разбивкой на сюжеты-фрагменты с разных видеокассет

Оцифрую видеокассеты VHS (большие такие) в Минске - в формат одного DVD с разбивкой на сюжеты-фрагменты с разных видеокассет

 

Оцифрую видеокассеты VHS (большие такие) в Минске - в формат одного DVD с разбивкой на сюжеты-фрагменты с разных видеокассет

 

Оцифрую видеокассеты VHS (большие такие) в Минске - в формат одного DVD с разбивкой на сюжеты-фрагменты с разных видеокассет

Характеристики файлов, записанных моим пишущим DVD

в режиме перезаписи HQ – 1 час видеокассеты на 1 DVD+RW-диск (4.38 Гб) в режиме перезаписи SP – 2 часа видеокассеты на 1 DVD+RW-диск (4.38 Гб)
F:\Видео-Кассета. 1 час

General

Complete name : F:\ Видео-Кассета. 1 час.mpg

Format : MPEG-PS

File size : 4.17 GiB

Duration : 1h 2mn

      Overall bit rate : 9 544 Kbps

Video #224

ID : 224 (0xE0)

Format : MPEG Video

Format version : Version 2

Format profile : Main@Main

Format settings, BVOP : Yes

Format settings, Matrix : Custom

Format settings, GOP : M=3, N=12

Format settings, picture structure : Frame

Duration : 1h 2mn

      Bit rate : 9 000 Kbps

Width : 720 pixels

Height : 576 pixels

Display aspect ratio : 4:3

Frame rate : 25.000 fps

Standard : PAL

Color space : YUV

Chroma subsampling : 4:2:0

Bit depth : 8 bits

Scan type : Interlaced

Scan order : Top Field First

Compression mode : Lossy

      Bits/(Pixel*Frame) : 0.868

Time code of first frame : 00:00:00:00

Time code source : Group of pictures header

GOP, Open/Closed : Open

GOP, Open/Closed of first frame : Closed

      Stream size : 3.92 GiB (94%)

Audio #192

ID : 192 (0xC0)

Format : MPEG Audio

Format version : Version 1

Format profile : Layer 2

Duration : 1h 2mn

Bit rate mode : Constant

     Bit rate : 384 Kbps

Channel(s) : 2 channels

Sampling rate : 48.0 KHz

Compression mode : Lossy

Stream size : 172 MiB (4%)

G:\VTS_01_1.VOB

General

Complete name : G:\VTS_01_1.VOB

Format : MPEG-PS

File size : 23.4 MiB

Duration : 41s 280ms

      Overall bit rate : 4 750 Kbps

Video #224

ID : 224 (0xE0)

Format : MPEG Video

Format version : Version 2

Format profile : Main@Main

Format settings, BVOP : Yes

Format settings, Matrix : Custom

Format settings, GOP : M=3, N=12

Format settings, picture structure : Frame

Duration : 41s 280ms

      Bit rate : 4 380 Kbps

Width : 720 pixels

Height : 576 pixels

Display aspect ratio : 4:3

Frame rate : 25.000 fps

Standard : PAL

Color space : YUV

Chroma subsampling : 4:2:0

Bit depth : 8 bits

Scan type : Interlaced

Scan order : Top Field First

Compression mode : Lossy

      Bits/(Pixel*Frame) : 0.422

Time code of first frame : 00:00:00:00

Time code source : Group of pictures header

GOP, Open/Closed : Open

GOP, Open/Closed of first frame : Closed

     Stream size : 21.7 MiB (93%)

Audio #192

ID : 192 (0xC0)

Format : MPEG Audio

Format version : Version 1

Format profile : Layer 2

Duration : 40s 848ms

Bit rate mode : Constant

     Bit rate : 256 Kbps

Channel(s) : 2 channels

Sampling rate : 48.0 KHz

Compression mode : Lossy

Stream size : 1.25 MiB (5%)

Понравилась статья? Поделиться с друзьями:
Компьютер, смартфон, планшет для жизни, профессии и творчества
Добавить комментарий

;-) :| :x :twisted: :smile: :shock: :sad: :roll: :razz: :oops: :o :mrgreen: :lol: :idea: :grin: :evil: :cry: :cool: :arrow: :???: :?: :!: